Mr. Kee - Ek Jaanbaaz Khiladi (2018) 720p Webrip x264 Hindi Dubbed Exclusive By [Crazzy Boy] 850 MB

.
Download .Torrent Magnet
Torren Name: Mr. Kee - Ek Jaanbaaz Khiladi (2018) 720p Webrip x264 Hindi Dubbed Exclusive By [Crazzy Boy] 850 MB
Org Name: Mr. Kee - Ek Jaanbaaz Khiladi
Last Check:
23 February 2018 (16:11)
File size: 849.98 MB
Categories: Hindi Dubbed Movies
Uploader: TodayPk.se
Seeders: 57 Leechers: 48 Downloaded: 1707
Last scrape: 23 February 2018 16:11:52


ebff283becf5d0f55d55d198c11928ba.png

Mr. Kee - Ek Jaanbaaz Khiladi (2018) 720p Webrip x264 Hindi Dubbed Exclusive By [Crazzy Boy] 850 MB 


Visit For Cheapest Hosting http://semayra.com/ 

Seed Will Be Slow Visit Our Site For Instant Download 
Visit & Support www.MoviezAddiction.website 






Quote:


Mr. Kee - Ek Jaanbaaz Khiladi (2018) 720p Webrip x264 Hindi Dubbed Exclusive By [Crazzy Boy] 850 MB 



Check Sample Before any Fool Comment Sample Included in torrent 
Take It Or Leave It 
Like Our Work Just leave Only 1 Valuable Comment 
Keep Visit and Support http://moviezaddiction.website 



General 
Unique ID : 230696436492903827687949827441892796268 (0xAD8E847B91A0D5F1ABAE0F20D32C276C) 
Complete name : Mr. Kee - Ek Jaanbaaz Khiladi (2018) 720p Webrip x264 Hindi Dubbed Exclusive By [Crazzy Boy] 835 MB.mkv 
Format : Matroska 
Format version : Version 4 / Version 2 
File size : 833 MiB 
Duration : 2 h 25 min 
Overall bit rate : 804 kb/s 
Movie name : Visit www.MoviezAddiction.Website 
Encoded date : UTC 2018-01-24 09:43:51 
Writing application : mkvmerge v18.0.0 ('Apricity') 32-bit 
Writing library : libebml v1.3.5 + libmatroska v1.4.8 

Video 
ID : 1 
Format : AVC 
Format/Info : Advanced Video Codec 
Format profile : [email protected] 
Format settings : CABAC / 3 Ref Frames 
Format settings, CABAC : Yes 
Format settings, RefFrames : 3 frames 
Codec ID : V_MPEG4/ISO/AVC 
Duration : 2 h 24 min 
Bit rate : 676 kb/s 
Width : 1 280 pixels 
Height : 720 pixels 
Display aspect ratio : 16:9 
Frame rate mode : Constant 
Frame rate : 29.970 (30000/1001) FPS 
Color space : YUV 
Chroma subsampling : 4:2:0 
Bit depth : 8 bits 
Scan type : Progressive 
Bits/(Pixel*Frame) : 0.024 
Stream size : 701 MiB (84%) 
Title : Visit www.MoviezAddiction.Website 
Default : Yes 
Forced : No 
Color range : Limited 
Color primaries : BT.709 
Transfer characteristics : BT.709 
Matrix coefficients : BT.709 

Audio 
ID : 2 
Format : AAC 
Format/Info : Advanced Audio Codec 
Format profile : LC 
Codec ID : A_AAC-2 
Duration : 2 h 25 min 
Bit rate : 126 kb/s 
Channel(s) : 2 channels 
Channel positions : Front: L R 
Sampling rate : 44.1 kHz 
Frame rate : 43.066 FPS (1024 SPF) 
Compression mode : Lossy 
Stream size : 130 MiB (16%) 
Title : Visit www.MoviezAddiction.Website 
Default : Yes 
Forced : No