Nenu Local (2017) Hindi Dubbed 1080p UNCUT HDRip x264 AC3

.
Download .Torrent Magnet
Torren Name: Nenu Local (2017) Hindi Dubbed 1080p UNCUT HDRip x264 AC3
Org Name: Nenu Local
Last Check:
19 February 2018 (08:09)
File size: 2.76 GB
Categories: Hindi Dubbed Movies
Uploader: TodayPk.se
Seeders: 26 Leechers: 8 Downloaded: 242
Last scrape: 19 February 2018 08:09:55


ebff283becf5d0f55d55d198c11928ba.png





Format : Matroska 
Format version : Version 4 / Version 2 
File size : 2.70 GiB 
Duration : 2 h 18 min 
Overall bit rate : 2 788 kb/s 
Encoded date : UTC 2018-01-25 06:48:19 
Writing library : libebml v1.3.0 + libmatroska v1.4.1 

Video 
ID : 1 
Format : AVC 
Format/Info : Advanced Video Codec 
Format profile : [email protected] 
Format settings : CABAC / 4 Ref Frames 
Format settings, CABAC : Yes 
Format settings, ReFrames : 4 frames 
Codec ID : V_MPEG4/ISO/AVC 
Duration : 2 h 18 min 
Bit rate : 2 594 kb/s 
Width : 1 920 pixels 
Height : 820 pixels 
Display aspect ratio : 2.35:1 
Frame rate mode : Constant 
Frame rate : 23.976 (24000/1001) FPS 
Color space : YUV 
Chroma subsampling : 4:2:0 
Bit depth : 8 bits 
Scan type : Progressive 
Bits/(Pixel*Frame) : 0.069 
Stream size : 2.51 GiB (93%) 
Writing library : x264 core 148 r2708 86b7198 
Default : Yes 
Forced : No 
Color range : Limited 
Color primaries : BT.709 
Transfer characteristics : BT.709 
Matrix coefficients : BT.709 

Audio 
ID : 2 
Format : AC-3 
Format/Info : Audio Coding 3 
Codec ID : A_AC3 
Duration : 2 h 18 min 
Bit rate mode : Constant 
Bit rate : 192 kb/s 
Channel(s) : 2 channels 
Channel positions : Front: L R 
Sampling rate : 48.0 kHz 
Frame rate : 31.250 FPS (1536 SPF) 
Bit depth : 16 bits 
Compression mode : Lossy 
Stream size : 190 MiB (7%) 
Language : Hindi 
Service kind : Complete Main 
Default : Yes 
Forced : No