Nehle Pe Dehla (Gopala Gopala) 2018 Hindi Dubbed 1080p HDRip x264 AAC

.
Download .Torrent Magnet
Torren Name: Nehle Pe Dehla (Gopala Gopala) 2018 Hindi Dubbed 1080p HDRip x264 AAC
Org Name: Nehle Pe Dehla
Last Check:
22 February 2018 (10:43)
File size: 2.39 GB
Categories: Hindi Dubbed Movies
Uploader: TodayPk.se
Seeders: 29 Leechers: 10 Downloaded: 791
Last scrape: 22 February 2018 10:43:08


ebff283becf5d0f55d55d198c11928ba.png





Format : Matroska 
Format version : Version 4 / Version 2 
File size : 2.38 GiB 
Duration : 2 h 12 min 
Overall bit rate : 2 577 kb/s 
Encoded date : UTC 2018-01-29 20:19:16 
Writing application : mkvmerge v7.0.0 ('Where We Going') 64bit built on Jun 9 2014 15:16:27 
Writing library : libebml v1.3.0 + libmatroska v1.4.1 

Video 
ID : 1 
Format : AVC 
Format/Info : Advanced Video Codec 
Format profile : [email protected] 
Format settings : CABAC / 4 Ref Frames 
Format settings, CABAC : Yes 
Format settings, ReFrames : 4 frames 
Codec ID : V_MPEG4/ISO/AVC 
Duration : 2 h 12 min 
Bit rate : 2 446 kb/s 
Width : 1 920 pixels 
Height : 820 pixels 
Display aspect ratio : 2.35:1 
Frame rate mode : Constant 
Frame rate : 23.976 (24000/1001) FPS 
Color space : YUV 
Chroma subsampling : 4:2:0 
Bit depth : 8 bits 
Scan type : Progressive 
Bits/(Pixel*Frame) : 0.065 
Stream size : 2.26 GiB (95%) 
Writing library : x264 core 148 r2708 86b7198 
Default : Yes 
Forced : No 
Color range : Limited 
Color primaries : BT.709 
Transfer characteristics : BT.709 
Matrix coefficients : BT.709 

Audio 
ID : 2 
Format : AAC 
Format/Info : Advanced Audio Codec 
Format profile : LC 
Codec ID : A_AAC-2 
Duration : 2 h 12 min 
Bit rate : 128 kb/s 
Channel(s) : 2 channels 
Channel positions : Front: L R 
Sampling rate : 44.1 kHz 
Frame rate : 43.066 FPS (1024 SPF) 
Compression mode : Lossy 
Stream size : 121 MiB (5%) 
Language : English 
Default : Yes 
Forced : No