Nehle Pe Dehla (Gopala Gopala) (2015) Hindi Dubbed 720p WEBHD x264 AAC ESubs - 1.2GB - MovCr.mkv

.
Download .Torrent Magnet
Torren Name: Nehle Pe Dehla (Gopala Gopala) (2015) Hindi Dubbed 720p WEBHD x264 AAC ESubs - 1.2GB - MovCr.mkv
Org Name: Nehle Pe Dehla
Last Check:
19 February 2018 (05:29)
File size: 1.17 GB
Categories: Hindi Dubbed Movies
Uploader: TodayPk.se
Seeders: 30 Leechers: 0 Downloaded: 701
Last scrape: 19 February 2018 05:29:28


ebff283becf5d0f55d55d198c11928ba.png

Nehle Pe Dehla (Gopala Gopala) (2015) Hindi Dubbed 720p WEBHD x264 AAC ESubs - 1.2GB - MovCr 

http://www.imdb.com/title/tt4337414/ 


General 
Complete name : www.movcr.com - Nehle Pe Dehla (Gopala Gopala) (2015) Hindi Dubbed 720p WEBHD x264 AAC - 1.2GB - ESubs - MovCr.mkv 
Format : Matroska 
Format version : Version 4 / Version 2 
File size : 1.17 GiB 
Duration : 2 h 12 min 
Overall bit rate : 1 264 kb/s 
Movie name : www.movcr.com 
Encoded date : UTC 2018-01-30 07:38:04 
Writing application : mkvmerge v20.0.0 ('I Am The Sun') 64-bit 
Writing library : libebml v1.3.5 + libmatroska v1.4.8 

Video 
ID : 1 
Format : AVC 
Format/Info : Advanced Video Codec 
Format profile : [email protected] 
Format settings : CABAC / 3 Ref Frames 
Format settings, CABAC : Yes 
Format settings, RefFrames : 3 frames 
Codec ID : V_MPEG4/ISO/AVC 
Duration : 2 h 12 min 
Bit rate : 1 136 kb/s 
Width : 1 280 pixels 
Height : 720 pixels 
Display aspect ratio : 16:9 
Frame rate mode : Constant 
Frame rate : 25.000 FPS 
Color space : YUV 
Chroma subsampling : 4:2:0 
Bit depth : 8 bits 
Scan type : Progressive 
Bits/(Pixel*Frame) : 0.049 
Stream size : 1.05 GiB (90%) 
Title : www.movcr.com 
Default : Yes 
Forced : No 
Color range : Limited 
Color primaries : BT.709 
Transfer characteristics : BT.709 
Matrix coefficients : BT.709 

Audio 
ID : 2 
Format : AAC 
Format/Info : Advanced Audio Codec 
Format profile : LC 
Codec ID : A_AAC-2 
Duration : 2 h 12 min 
Bit rate : 126 kb/s 
Channel(s) : 2 channels 
Channel positions : Front: L R 
Sampling rate : 44.1 kHz 
Frame rate : 43.066 FPS (1024 SPF) 
Compression mode : Lossy 
Stream size : 119 MiB (10%) 
Title : www.movcr.com 
Language : Hindi 
Default : Yes 
Forced : No 

Text 
ID : 3 
Format : UTF-8 
Codec ID : S_TEXT/UTF8 
Codec ID/Info : UTF-8 Plain Text 
Duration : 2 h 11 min 
Bit rate : 85 b/s 
Count of elements : 2102 
Stream size : 82.1 KiB (0%) 
Title : www.movcr.com 
Language : English 
Default : Yes 
Forced : No