Kanchana The Wonder Car (Dora) 2018 Hindi Dubbed 1080p HDRip x264 AAC

.
Download .Torrent Magnet
Torren Name: Kanchana The Wonder Car (Dora) 2018 Hindi Dubbed 1080p HDRip x264 AAC
Org Name: Kanchana The Wonder Car
Last Check:
22 February 2018 (17:05)
File size: 1.93 GB
Categories: Hindi Dubbed Movies
Uploader: TodayPk.se
Seeders: 142 Leechers: 68 Downloaded: 3341
Last scrape: 22 February 2018 17:05:52


ebff283becf5d0f55d55d198c11928ba.png





Format : Matroska 
Format version : Version 4 / Version 2 
File size : 912 MiB 
Duration : 2 h 6 min 
Overall bit rate : 1 009 kb/s 
Encoded date : UTC 2018-02-03 19:00:46 
Writing application : mkvmerge v7.0.0 ('Where We Going') 64bit built on Jun 9 2014 15:16:27 
Writing library : libebml v1.3.0 + libmatroska v1.4.1 

Video 
ID : 1 
Format : AVC 
Format/Info : Advanced Video Codec 
Format profile : [email protected] 
Format settings : CABAC / 4 Ref Frames 
Format settings, CABAC : Yes 
Format settings, ReFrames : 4 frames 
Codec ID : V_MPEG4/ISO/AVC 
Duration : 2 h 6 min 
Bit rate : 879 kb/s 
Width : 1 280 pixels 
Height : 546 pixels 
Display aspect ratio : 2.35:1 
Frame rate mode : Constant 
Frame rate : 23.976 (24000/1001) FPS 
Color space : YUV 
Chroma subsampling : 4:2:0 
Bit depth : 8 bits 
Scan type : Progressive 
Bits/(Pixel*Frame) : 0.052 
Stream size : 794 MiB (87%) 
Writing library : x264 core 148 r2708 86b7198 
Default : Yes 
Forced : No 
Color range : Limited 
Color primaries : BT.709 
Transfer characteristics : BT.709 
Matrix coefficients : BT.709 

Audio 
ID : 2 
Format : AAC 
Format/Info : Advanced Audio Codec 
Format profile : LC 
Codec ID : A_AAC-2 
Duration : 2 h 6 min 
Bit rate : 128 kb/s 
Channel(s) : 2 channels 
Channel positions : Front: L R 
Sampling rate : 44.1 kHz 
Frame rate : 43.066 FPS (1024 SPF) 
Compression mode : Lossy 
Stream size : 116 MiB (13%) 
Default : Yes 
Forced : No