Van Helsing (2004) 1080p HEVC H265 Dual Audio [Hindi DD 2.0 384 kbps-English DD 5.1 448 kbps] [Dzrg

.
Download .Torrent Magnet
Torren Name: Van Helsing (2004) 1080p HEVC H265 Dual Audio [Hindi DD 2.0 384 kbps-English DD 5.1 448 kbps] [Dzrg
Org Name: Van Helsing
Last Check:
23 February 2018 (06:14)
File size: 2.77 GB
Categories: Hindi Dubbed Movies
Uploader: TodayPk.se
Seeders: 13 Leechers: 18 Downloaded: 222
Last scrape: 23 February 2018 06:14:26


ebff283becf5d0f55d55d198c11928ba.png





Van Helsing (2004) 1080p HEVC H265 Dual Audio[Hindi DD 2.0 384 kbps- English DD 5.1 448 kbps][Dzrg Torrents®] 


[font=Comic Sans MS] 
General 
Format : Matroska 
Format version : Version 4 / Version 2 
File size : 2.77 GiB 
Duration : 2 h 11 min 
Overall bit rate : 3 014 kb/s 
Movie name : Van Helsing (2004) 1080p HEVC H265 Dual Audio [Hindi DD 2.0 384 kbps-English DD 5.1 448 kbps] [Dzrg Torrents®].mkv 
Encoded date : UTC 2018-02-02 05:51:07 
Writing application : mkvmerge v15.0.0 ('Duel with the Devil') 64-bit 
Writing library : libebml v1.3.5 + libmatroska v1.4.5 
[/font] 



[font=Comic Sans MS] 

Video 
ID : 1 
Format : HEVC 
Format/Info : High Efficiency Video Coding 
Format profile : [email protected]@Main 
Codec ID : V_MPEGH/ISO/HEVC 
Duration : 2 h 11 min 
Bit rate : 2 177 kb/s 
Width : 1 920 pixels 
Height : 1 040 pixels 
Display aspect ratio : 1.85:1 
Frame rate mode : Constant 
Frame rate : 23.976 (24000/1001) FPS 
Color space : YUV 
Chroma subsampling : 4:2:0 (Type 1 / Type 0) 
Bit depth : 8 bits 
Bits/(Pixel*Frame) : 0.045 
Stream size : 2.00 GiB (72%) 
Language : Hindi 
Default : Yes 
Forced : No 
Color range : Full 
Color primaries : BT.709 
Transfer characteristics : BT.709 
Matrix coefficients : BT.709 

[/font] 






[font=Comic Sans MS] 
Audio #1 
ID : 2 
Format : AC-3 
Format/Info : Audio Coding 3 
Mode extension : CM (complete main) 
Format settings, Endianness : Big 
Codec ID : A_AC3 
Duration : 2 h 11 min 
Bit rate mode : Constant 
Bit rate : 384 kb/s 
Channel(s) : 2 channels 
Channel positions : Front: L R 
Sampling rate : 48.0 kHz 
Frame rate : 31.250 FPS (1536 spf) 
Bit depth : 16 bits 
Compression mode : Lossy 
Stream size : 361 MiB (13%) 
Title : [Hindi DD 2.0 384 kbps] [Dzrg Torrents®] 
Language : Hindi 
Default : Yes 
Forced : No 
[/font] 



[font=Comic Sans MS] 
Audio #2 
ID : 3 
Format : AC-3 
Format/Info : Audio Coding 3 
Mode extension : CM (complete main) 
Format settings, Endianness : Big 
Codec ID : A_AC3 
Duration : 2 h 11 min 
Bit rate mode : Constant 
Bit rate : 448 kb/s 
Channel(s) : 6 channels 
Channel positions : Front: L C R, Side: L R, LFE 
Sampling rate : 48.0 kHz 
Frame rate : 31.250 FPS (1536 spf) 
Bit depth : 16 bits 
Compression mode : Lossy 
Stream size : 421 MiB (15%) 
Title : [English DD 5.1 448 kbps] [Dzrg Torrents®] 
Language : English 
Default : No 
Forced : No 

[/font] 



[font=Comic Sans MS] 
Text 
ID : 4 
Format : VobSub 
Muxing mode : zlib 
Codec ID : S_VOBSUB 
Codec ID/Info : Picture based subtitle format used on DVDs 
Duration : 1 h 58 min 
Bit rate : 6 022 b/s 
Count of elements : 1011 
Stream size : 5.12 MiB (0%) 
Title : [Vob Sub] [Dzrg Torrents®] 
Language : English 
Default : Yes 
Forced : No