Coco 2017 720p Esub WEB RIP Dual Audio English Hindi GOPISAHI

.
Download .Torrent Magnet
Torren Name: Coco 2017 720p Esub WEB RIP Dual Audio English Hindi GOPISAHI
Org Name: Coco
Last Check:
23 February 2018 (16:33)
File size: 464.48 MB
Categories: Hindi Dubbed Movies
Uploader: TodayPk.se
Seeders: 41 Leechers: 14 Downloaded: 3430
Last scrape: 23 February 2018 16:33:37


ebff283becf5d0f55d55d198c11928ba.png



NOTE HINDI AUDIO CAM 

Format : Matroska 
Format version : Version 4 / Version 2 
File size : 464 MiB 
Duration : 1 h 40 min 
Overall bit rate : 644 kb/s 
Movie name : Coco 2017 GOPISAHI 

Video 
Format : AVC 
Codec ID : V_MPEG4/ISO/AVC 
Duration : 1 h 40 min 
Bit rate : 500 kb/s 
Width : 1 280 pixels 
Height : 534 pixels 
Display aspect ratio : 2.40:1 
Frame rate mode : Constant 
Frame rate : 23.976 (24000/1001) FPS 
Stream size : 360 MiB (78%) 
Writing library : x264 

Audio #1 
Format : AAC 
Duration : 1 h 40 min 
Bit rate : 57.6 kb/s 
Channel(s) : 6 channels 
Channel positions : Front: L C R, Side: L R, LFE 
Sampling rate : 44.1 kHz 
Frame rate : 43.066 FPS (1024 SPF) 
Stream size : 41.5 MiB (9%) 
Language : English 

Audio #2 
Format : AAC 
Duration : 1 h 40 min 
Bit rate : 84.1 kb/s 
Channel(s) : 6 channels 
Channel positions : Front: L C R, Side: L R, LFE 
Sampling rate : 44.1 kHz 
Frame rate : 43.066 FPS (1024 SPF) 
Compression mode : Lossy 
Stream size : 60.6 MiB (13%) 
Language : Hindi 

Text 
Language : English