Coco (2017) 720p HDRip x264 Dual Audio [Hindi(Cleaned) + English].mkv

.
Download .Torrent Magnet
Torren Name: Coco (2017) 720p HDRip x264 Dual Audio [Hindi(Cleaned) + English].mkv
Org Name: Coco
Last Check:
19 February 2018 (06:41)
File size: 879.12 MB
Categories: Hindi Dubbed Movies
Uploader: TodayPk.se
Seeders: 156 Leechers: 29 Downloaded: 5835
Last scrape: 19 February 2018 06:41:12


ebff283becf5d0f55d55d198c11928ba.png





Format : Matroska 
Format version : Version 4 / Version 2 
File size : 879 MiB 
Duration : 1 h 40 min 
Overall bit rate : 1 220 kb/s 
Encoded date : UTC 2018-02-01 18:02:41 
Writing application : mkvmerge v7.0.0 ('Where We Going') 64bit built on Jun 9 2014 15:16:27 
Writing library : libebml v1.3.0 + libmatroska v1.4.1 

Video 
ID : 1 
Format : AVC 
Format/Info : Advanced Video Codec 
Format profile : [email protected] 
Format settings : CABAC / 4 Ref Frames 
Format settings, CABAC : Yes 
Format settings, ReFrames : 4 frames 
Codec ID : V_MPEG4/ISO/AVC 
Duration : 1 h 40 min 
Bit rate : 960 kb/s 
Width : 1 280 pixels 
Height : 534 pixels 
Display aspect ratio : 2.40:1 
Frame rate mode : Constant 
Frame rate : 23.976 (24000/1001) FPS 
Color space : YUV 
Chroma subsampling : 4:2:0 
Bit depth : 8 bits 
Scan type : Progressive 
Bits/(Pixel*Frame) : 0.059 
Stream size : 692 MiB (79%) 
Writing library : x264 core 148 r2708 86b7198 
Default : Yes 
Forced : No 
Color range : Limited 
Color primaries : BT.709 
Transfer characteristics : BT.709 
Matrix coefficients : BT.709 

Audio #1 
ID : 2 
Format : AAC 
Format/Info : Advanced Audio Codec 
Format profile : LC 
Codec ID : A_AAC-2 
Duration : 1 h 40 min 
Bit rate : 128 kb/s 
Channel(s) : 2 channels 
Channel positions : Front: L R 
Sampling rate : 48.0 kHz 
Frame rate : 46.875 FPS (1024 SPF) 
Compression mode : Lossy 
Delay relative to video : -21 ms 
Stream size : 92.2 MiB (10%) 
Language : Hindi 
Default : Yes 
Forced : No 

Audio #2 
ID : 3 
Format : AAC 
Format/Info : Advanced Audio Codec 
Format profile : LC 
Codec ID : A_AAC-2 
Duration : 1 h 40 min 
Bit rate : 128 kb/s 
Channel(s) : 2 channels 
Channel positions : Front: L R 
Sampling rate : 48.0 kHz 
Frame rate : 46.875 FPS (1024 SPF) 
Compression mode : Lossy 
Delay relative to video : -21 ms 
Stream size : 92.6 MiB (11%) 
Language : English 
Default : No 
Forced : No