Bharjari (2017) Hindi Dubbed 720p WEBHD x264 AAC - ESubs - 1.4GB - MovCr.mkv

.
Download .Torrent Magnet
Torren Name: Bharjari (2017) Hindi Dubbed 720p WEBHD x264 AAC - ESubs - 1.4GB - MovCr.mkv
Org Name: Bharjari
Last Check:
21 February 2018 (16:14)
File size: 1.42 GB
Categories: Hindi
Uploader: TodayPk.se
Seeders: 39 Leechers: 7 Downloaded: 1233
Last scrape: 21 February 2018 16:14:50


ebff283becf5d0f55d55d198c11928ba.png

Bharjari (2017) Hindi Dubbed 720p WEBHD x264 AAC - ESubs - 1.4GB - MovCr 


Bharjari is a romantic action entertainer written and directed by Chethan Kumar and jointly produced by R. Srinivas and Sreekanth K. P while V. Harikrishna scored music for this movie 

Dhruva Sarja, Rachita Ram, Haripriya and Vaishali Deepak are playing the main lead roles along with P. Ravi Shankar, Sudha Rani, Sai Kumar, Jahangir, Saikumar, Sudharani are seen in supporting roles in this movie. 

General 
Complete name                            : www.movcr.com - Bharjari (2017) Hindi Dubbed 720p WEBHD x264 AAC - ESubs - 1.4GB - MovCr.mkv 
Format                                   : Matroska 
Format version                           : Version 4 / Version 2 
File size                                : 1.42 GiB 
Duration                                 : 2 h 30 min 
Overall bit rate                         : 1 356 kb/s 
Movie name                               : www.movcr.com 
Encoded date                             : UTC 2018-02-02 06:20:53 
Writing application                      : mkvmerge v20.0.0 ('I Am The Sun') 64-bit 
Writing library                          : libebml v1.3.5 + libmatroska v1.4.8 / IDMmkvlib0.1 
Language                                 : und 

Video 
ID                                       : 1 
Format                                   : VP9 
Codec ID                                 : V_VP9 
Duration                                 : 2 h 30 min 
Bit rate                                 : 1 241 kb/s 
Width                                    : 1 280 pixels 
Height                                   : 720 pixels 
Display aspect ratio                     : 16:9 
Frame rate mode                          : Constant 
Frame rate                               : 25.000 FPS 
Bits/(Pixel*Frame)                       : 0.054 
Stream size                              : 1.30 GiB (92%) 
Title                                    : www.movcr.com 
Default                                  : Yes 
Forced                                   : No 

Audio 
ID                                       : 2 
Format                                   : Opus 
Codec ID                                 : A_OPUS 
Duration                                 : 2 h 30 min 
Bit rate                                 : 112 kb/s 
Channel(s)                               : 2 channels 
Channel positions                        : Front: L R 
Sampling rate                            : 48.0 kHz 
Frame rate                               : 50.000 FPS (960 SPF) 
Compression mode                         : Lossy 
Stream size                              : 121 MiB (8%) 
Title                                    : www.movcr.com 
Default                                  : Yes 
Forced                                   : No 

Text 
ID                                       : 3 
Format                                   : UTF-8 
Codec ID                                 : S_TEXT/UTF8 
Codec ID/Info                            : UTF-8 Plain Text 
Bit rate                                 : 0 b/s 
Count of elements                        : 1 
Stream size                              : 17.0 Bytes (0%) 
Title                                    : www.movcr.com 
Default                                  : Yes 
Forced                                   : No