Paanch Ka Punch (Ainthu Ainthu Ainthu) (2013) Hindi Dubbed 720p x264 AAC - ESubs - 900MB - MovCr.mkv

.
Download .Torrent Magnet
Torren Name: Paanch Ka Punch (Ainthu Ainthu Ainthu) (2013) Hindi Dubbed 720p x264 AAC - ESubs - 900MB - MovCr.mkv
Org Name: Paanch Ka Punch (Ainthu Ainthu Ainthu)
Last Check:
19 February 2018 (07:48)
File size: 886.78 MB
Categories: Hindi Dubbed Movies
Uploader: TodayPk.se
Seeders: 44 Leechers: 3 Downloaded: 630
Last scrape: 19 February 2018 07:48:03


ebff283becf5d0f55d55d198c11928ba.png

Paanch Ka Punch (Ainthu Ainthu Ainthu) (2013) Hindi Dubbed 720p x264 AAC - ESubs - 900MB - MovCr 

http://www.imdb.com/title/tt3114346/ 


General 
Complete name : www.movcr.com - Paanch Ka Punch (Ainthu Ainthu Ainthu) (2013) Hindi Dubbed 720p x264 AAC - ESubs - 900MB - MovCr.mkv 
Format : Matroska 
Format version : Version 4 / Version 2 
File size : 887 MiB 
Duration : 2 h 9 min 
Overall bit rate : 958 kb/s 
Movie name : www.movcr.com 
Encoded date : UTC 2018-02-12 02:47:32 
Writing application : mkvmerge v20.0.0 ('I Am The Sun') 64-bit 
Writing library : libebml v1.3.5 + libmatroska v1.4.8 / IDMmkvlib0.1 
Language : und 

Video 
ID : 1 
Format : VP9 
Codec ID : V_VP9 
Duration : 2 h 9 min 
Bit rate : 831 kb/s 
Width : 1 280 pixels 
Height : 720 pixels 
Display aspect ratio : 16:9 
Frame rate mode : Constant 
Frame rate : 25.000 FPS 
Bits/(Pixel*Frame) : 0.036 
Stream size : 769 MiB (87%) 
Title : www.movcr.com 
Default : Yes 
Forced : No 

Audio 
ID : 2 
Format : Opus 
Codec ID : A_OPUS 
Duration : 2 h 9 min 
Bit rate : 125 kb/s 
Channel(s) : 2 channels 
Channel positions : Front: L R 
Sampling rate : 48.0 kHz 
Frame rate : 50.000 FPS (960 SPF) 
Compression mode : Lossy 
Stream size : 115 MiB (13%) 
Title : www.movcr.com 
Language : Hindi 
Default : Yes 
Forced : No 

Text 
ID : 3 
Format : UTF-8 
Codec ID : S_TEXT/UTF8 
Codec ID/Info : UTF-8 Plain Text 
Duration : 2 h 2 min 
Bit rate : 43 b/s 
Count of elements : 1250 
Stream size : 38.8 KiB (0%) 
Title : www.movcr.com 
Language : English 
Default : Yes 
Forced : No