Secret Superstar (2017) Hindi HDTV-Rip - 700MB - x264 - 1CD - MP3 - MovCr.mkv

.
Download .Torrent Magnet
Torren Name: Secret Superstar (2017) Hindi HDTV-Rip - 700MB - x264 - 1CD - MP3 - MovCr.mkv
Org Name: Secret Superstar
Last Check:
21 February 2018 (14:24)
File size: 705.41 MB
Categories: Hindi Dubbed Movies
Uploader: TodayPk.se
Seeders: 60 Leechers: 13 Downloaded: 1346
Last scrape: 21 February 2018 14:24:39


ebff283becf5d0f55d55d198c11928ba.png

Secret Superstar (2017) Hindi HDTV-Rip - 700MB - x264 - 1CD - MP3 - MovCr 

http://www.imdb.com/title/tt6108090/ 


General 
Complete name : www.movcr.com - Secret Superstar (2017) Hindi HDTV-Rip - 700MB - x264 - 1CD - MP3 - MovCr.mkv 
Format : Matroska 
Format version : Version 4 / Version 2 
File size : 705 MiB 
Duration : 2 h 23 min 
Overall bit rate mode : Variable 
Overall bit rate : 686 kb/s 
Movie name : www.movcr.com 
Encoded date : UTC 2018-02-12 01:51:20 
Writing application : mkvmerge v20.0.0 ('I Am The Sun') 64-bit 
Writing library : libebml v1.3.5 + libmatroska v1.4.8 

Video 
ID : 1 
Format : AVC 
Format/Info : Advanced Video Codec 
Format profile : [email protected] 
Format settings : CABAC / 4 Ref Frames 
Format settings, CABAC : Yes 
Format settings, RefFrames : 4 frames 
Codec ID : V_MPEG4/ISO/AVC 
Duration : 2 h 23 min 
Bit rate : 588 kb/s 
Width : 720 pixels 
Height : 302 pixels 
Display aspect ratio : 2.40:1 
Frame rate mode : Constant 
Frame rate : 25.000 FPS 
Color space : YUV 
Chroma subsampling : 4:2:0 
Bit depth : 8 bits 
Scan type : Progressive 
Bits/(Pixel*Frame) : 0.108 
Stream size : 605 MiB (86%) 
Title : www.movcr.com 
Writing library : x264 core 148 r2708 86b7198 
Encoding settings : cabac=1 / ref=2 / deblock=1:0:0 / analyse=0x1:0x111 / me=hex / subme=6 / psy=1 / psy_rd=1.00:0.00 / mixed_ref=1 / me_range=16 / chroma_me=1 / trellis=1 / 8x8dct=0 / cqm=0 / deadzone=21,11 / fast_pskip=1 / chroma_qp_offset=-2 / threads=9 / lookahead_threads=1 / sliced_threads=0 / nr=0 / decimate=1 / interlaced=0 / bluray_compat=0 / constrained_intra=0 / bframes=3 / b_pyramid=2 / b_adapt=1 / b_bias=0 / direct=1 / weightb=1 / open_gop=0 / weightp=1 / keyint=250 / keyint_min=25 / scenecut=40 / intra_refresh=0 / rc_lookahead=30 / rc=2pass / mbtree=1 / bitrate=588 / ratetol=1.0 / qcomp=0.60 / qpmin=0 / qpmax=69 / qpstep=4 / cplxblur=20.0 / qblur=0.5 / vbv_maxrate=20000 / vbv_bufsize=25000 / nal_hrd=none / filler=0 / ip_ratio=1.40 / aq=1:1.00 
Language : Hindi 
Default : Yes 
Forced : No 
Color range : Limited 
Color primaries : BT.709 
Transfer characteristics : BT.709 
Matrix coefficients : BT.709 

Audio 
ID : 2 
Format : MPEG Audio 
Format version : Version 1 
Format profile : Layer 3 
Format settings : Joint stereo / MS Stereo 
Codec ID : A_MPEG/L3 
Codec ID/Hint : MP3 
Duration : 2 h 23 min 
Bit rate mode : Variable 
Bit rate : 96.0 kb/s 
Channel(s) : 2 channels 
Sampling rate : 48.0 kHz 
Frame rate : 41.667 FPS (1152 SPF) 
Compression mode : Lossy 
Stream size : 98.3 MiB (14%) 
Title : www.movcr.com 
Writing library : LAME3.99r 
Encoding settings : -m j -V 4 -q 3 -lowpass 15.1 --abr 96 
Language : Hindi 
Default : Yes 
Forced : No