Padman 2018 720p PreDVD-Rip x264 MP3 Mafiaking M2Tv

.
Download .Torrent Magnet
Torren Name: Padman 2018 720p PreDVD-Rip x264 MP3 Mafiaking M2Tv
Org Name: Padman
Last Check:
22 February 2018 (18:38)
File size: 975.91 MB
Categories: Hindi Dubbed Movies
Uploader: TodayPk.se
Seeders: 2241 Leechers: 867 Downloaded: 31512
Last scrape: 22 February 2018 18:38:37


ebff283becf5d0f55d55d198c11928ba.png












Ratings: 8.6/10 

Genere: Biography, Comedy, Drama 

General 
Complete name : Padman (2018) - 720p - PreDVD-Rip - Hindi - x264 - MP3 - Mafiaking - M2Tv.mkv 
Format : Matroska 
File size : 969 MiB 
Duration : 2 h 12 min 
Overall bit rate : 1 025 kb/s 
Movie name : Padman (2018) - 720p - PreDVD-Rip - Hindi - x264 - MP3 - Mafiaking - M2Tv 

Video 
ID : 1 
Format : AVC 
Codec ID : V_MPEG4/ISO/AVC 
Duration : 2 h 12 min 
Bit rate : 911 kb/s 
Width : 1 280 pixels 
Height : 544 pixels 
Display aspect ratio : 2.35:1 
Frame rate mode : Constant 
Frame rate : 25.000 FPS 
Stream size : 862 MiB (89%) 
Title : Mafiaking 
Language : Hindi 
Default : Yes 
Forced : No 

Audio 
ID : 2 
Format : MPEG Audio 
Codec ID/Hint : MP3 
Duration : 2 h 12 min 
Bit rate : 112 kb/s 
Channel(s) : 2 channels 
Stream size : 106 MiB (11%) 
Title : Mafiaking 
Language : Hindi 
Default : Yes 
Forced : No 

SAMPLE WITH IN TORRENT 

[/quote] 


**To View Image In Full Size Click on Thumbnails**