Murder On The Orient Express 2017 1080p BluRay x264 Dual Audio [Hindi DD 5.1 - English 2.0] ESub

.
Download .Torrent Magnet
Torren Name: Murder On The Orient Express 2017 1080p BluRay x264 Dual Audio [Hindi DD 5.1 - English 2.0] ESub
Org Name: Murder On The Orient Express
Last Check:
22 February 2018 (15:42)
File size: 1.6 GB
Categories: Hindi Dubbed Movies
Uploader: TodayPk.se
Seeders: 184 Leechers: 63 Downloaded: 3644
Last scrape: 22 February 2018 15:42:31


ebff283becf5d0f55d55d198c11928ba.png



General 
Format : Matroska 
Format version : Version 4 / Version 2 
File size : 1.60 GiB 
Duration : 1 h 53 min 
Overall bit rate : 2 005 kb/s 

Video 
ID : 1 
Format : AVC 
Format/Info : Advanced Video Codec 
Format profile : [email protected] 
Format settings : CABAC / 4 Ref Frames 
Format settings, CABAC : Yes 
Format settings, ReFrames : 4 frames 
Codec ID : V_MPEG4/ISO/AVC 
Duration : 1 h 53 min 
Bit rate : 1 700 kb/s 
Width : 1 920 pixels 
Height : 800 pixels 
Display aspect ratio : 2.40:1 
Frame rate mode : Constant 
Frame rate : 23.976 (24000/1001) FPS 
Color space : YUV 
Chroma subsampling : 4:2:0 
Bit depth : 8 bits 
Scan type : Progressive 
Bits/(Pixel*Frame) : 0.046 
Stream size : 1.34 GiB (84%) 
Writing library : x264 core 148 r2708 86b7198 
Default : Yes 
Forced : No 

Audio #1 
ID : 2 
Format : AC-3 
Format/Info : Audio Coding 3 
Codec ID : A_AC3 
Duration : 1 h 53 min 
Bit rate mode : Constant 
Bit rate : 256 kb/s 
Channel(s) : 6 channels 
Channel positions : Front: L C R, Side: L R, LFE 
Sampling rate : 48.0 kHz 
Frame rate : 31.250 FPS (1536 SPF) 
Bit depth : 16 bits 
Compression mode : Lossy 
Stream size : 209 MiB (13%) 
Language : Hindi 
Service kind : Complete Main 
Default : Yes 
Forced : No 

Audio #2 
ID : 4 
Format : AAC 
Format/Info : Advanced Audio Codec 
Format profile : LC 
Codec ID : A_AAC-2 
Duration : 1 h 53 min 
Bit rate : 64.7 kb/s 
Channel(s) : 2 channels 
Channel positions : Front: L R 
Sampling rate : 44.1 kHz 
Frame rate : 43.066 FPS (1024 SPF) 
Compression mode : Lossy 
Stream size : 52.8 MiB (3%) 
Language : English 
Default : No 
Forced : No 

Text 
ID : 3 
Format : UTF-8 
Codec ID : S_TEXT/UTF8 
Codec ID/Info : UTF-8 Plain Text 
Duration : 1 h 44 min 
Bit rate : 72 b/s 
Count of elements : 1844 
Stream size : 55.6 KiB (0%) 
Default : Yes 
Forced : No 

Menu 
00:00:00.000 : en:00:00:00.000 
00:03:06.144 : en:00:03:06.144 
00:06:42.193 : en:00:06:42.193 
00:11:44.746 : en:00:11:44.746 
00:18:26.188 : en:00:18:26.188 
00:24:53.659 : en:00:24:53.659 
00:33:14.159 : en:00:33:14.159 
00:37:47.515 : en:00:37:47.515 
00:43:16.511 : en:00:43:16.511 
00:46:24.865 : en:00:46:24.865 
00:51:23.580 : en:00:51:23.580 
00:55:52.015 : en:00:55:52.015 
01:00:03.183 : en:01:00:03.183 
01:05:39.227 : en:01:05:39.227 
01:10:40.153 : en:01:10:40.153 
01:14:17.578 : en:01:14:17.578 
01:18:05.055 : en:01:18:05.055 
01:21:12.284 : en:01:21:12.284 
01:24:39.366 : en:01:24:39.366 
01:28:37.854 : en:01:28:37.854 
01:32:28.376 : en:01:32:28.376 
01:37:04.652 : en:01:37:04.652 
01:40:30.024 : en:01:40:30.024 
01:46:49.903 : en:01:46:49.903