Justice League 2017 1080p WEBRip x264 Dual Audio [Hindi (Cleaned) - English 2.0] ESub

.
Download .Torrent Magnet
Torren Name: Justice League 2017 1080p WEBRip x264 Dual Audio [Hindi (Cleaned) - English 2.0] ESub
Org Name: Justice League
Last Check:
21 February 2018 (15:47)
File size: 2.69 GB
Categories: Hindi Dubbed Movies
Uploader: TodayPk.se
Seeders: 180 Leechers: 102 Downloaded: 3413
Last scrape: 21 February 2018 15:47:50


ebff283becf5d0f55d55d198c11928ba.png




General 
Format : Matroska 
Format version : Version 4 / Version 2 
File size : 2.69 GiB 
Duration : 1 h 59 min 
Overall bit rate : 3 216 kb/s 

Video 
ID : 1 
Format : AVC 
Format/Info : Advanced Video Codec 
Format profile : [email protected] 
Format settings : CABAC / 4 Ref Frames 
Format settings, CABAC : Yes 
Format settings, ReFrames : 4 frames 
Codec ID : V_MPEG4/ISO/AVC 
Duration : 1 h 59 min 
Bit rate : 2 900 kb/s 
Width : 1 920 pixels 
Height : 1 080 pixels 
Display aspect ratio : 16:9 
Frame rate mode : Constant 
Frame rate : 29.970 (30000/1001) FPS 
Color space : YUV 
Chroma subsampling : 4:2:0 
Bit depth : 8 bits 
Scan type : Progressive 
Bits/(Pixel*Frame) : 0.047 
Stream size : 2.42 GiB (90%) 
Writing library : x264 core 148 r2708 86b7198 
Default : Yes 
Forced : No 

Audio #1 
ID : 3 
Format : AAC 
Format/Info : Advanced Audio Codec 
Format profile : LC 
Codec ID : A_AAC-2 
Duration : 1 h 59 min 
Bit rate : 128 kb/s 
Channel(s) : 2 channels 
Channel positions : Front: L R 
Sampling rate : 44.1 kHz 
Frame rate : 43.066 FPS (1024 SPF) 
Compression mode : Lossy 
Stream size : 110 MiB (4%) 
Language : Hindi 
Default : No 
Forced : No 

Audio #2 
ID : 4 
Format : AAC 
Format/Info : Advanced Audio Codec 
Format profile : LC 
Codec ID : A_AAC-2 
Duration : 1 h 59 min 
Bit rate : 196 kb/s 
Channel(s) : 2 channels 
Channel positions : Front: L R 
Sampling rate : 44.1 kHz 
Frame rate : 43.066 FPS (1024 SPF) 
Compression mode : Lossy 
Stream size : 168 MiB (6%) 
Language : English 
Default : No 
Forced : No 

Text 
ID : 2 
Format : UTF-8 
Codec ID : S_TEXT/UTF8 
Codec ID/Info : UTF-8 Plain Text 
Duration : 1 h 49 min 
Bit rate : 43 b/s 
Count of elements : 1279 
Stream size : 35.3 KiB (0%) 
Language : English 
Default : Yes 
Forced : No