Love Actually 2003 720p Esub BluRay Dual Audio English Hindi GOPISAHI.mkv

.
Download .Torrent Magnet
Torren Name: Love Actually 2003 720p Esub BluRay Dual Audio English Hindi GOPISAHI.mkv
Org Name: Love Actually
Last Check:
18 February 2018 (20:42)
File size: 750.68 MB
Categories: Hindi
Uploader: TodayPk.se
Seeders: 35 Leechers: 19 Downloaded: 187
Last scrape: 18 February 2018 20:42:37


ebff283becf5d0f55d55d198c11928ba.png


Format : Matroska 
Format version : Version 4 / Version 2 
File size : 751 MiB 
Duration : 2 h 14 min 
Overall bit rate : 778 kb/s 
Movie name : Love Actually 2003 GOPISAHI 

Video 
Format : AVC 
Codec ID : V_MPEG4/ISO/AVC 
Duration : 2 h 14 min 
Bit rate : 600 kb/s 
Width : 1 280 pixels 
Height : 544 pixels 
Display aspect ratio : 2.35:1 
Frame rate mode : Constant 
Frame rate : 23.976 (24000/1001) FPS 
Stream size : 579 MiB (77%) 
Writing library : x264 core 155 r2893 b00bcaf 

Audio #1 
Format : AAC 
Duration : 2 h 14 min 
Bit rate : 85.8 kb/s 
Channel(s) : 6 channels 
Channel positions : Front: L C R, Side: L R, LFE 
Sampling rate : 44.1 kHz 
Frame rate : 43.066 FPS (1024 SPF) 
Compression mode : Lossy 
Stream size : 82.7 MiB (11%) 
Language : English 

Audio #2 
Format : AAC 
Duration : 2 h 14 min 
Bit rate : 89.7 kb/s 
Channel(s) : 6 channels 
Channel positions : Front: L C R, Side: L R, LFE 
Sampling rate : 44.1 kHz 
Frame rate : 43.066 FPS (1024 SPF) 
Compression mode : Lossy 
Stream size : 86.5 MiB (12%) 
Language : Hindi 

Text 
Language : English