Murder On The Orient Express 2017 720p BluRay x264 Dual Audio [Hindi DD 5.1 - English 2.0] ESub

.
Download .Torrent Magnet
Torren Name: Murder On The Orient Express 2017 720p BluRay x264 Dual Audio [Hindi DD 5.1 - English 2.0] ESub
Org Name: Murder On The Orient Express
Last Check:
22 February 2018 (17:06)
File size: 1.01 GB
Categories: Hindi Dubbed Movies
Uploader: TodayPk.se
Seeders: 184 Leechers: 52 Downloaded: 4122
Last scrape: 22 February 2018 17:06:14


ebff283becf5d0f55d55d198c11928ba.png




General 
Format : Matroska 
Format version : Version 4 / Version 2 
File size : 1.01 GiB 
Duration : 1 h 53 min 
Overall bit rate : 1 272 kb/s 

Video 
ID : 1 
Format : AVC 
Format/Info : Advanced Video Codec 
Format profile : [email protected] 
Format settings : CABAC / 4 Ref Frames 
Format settings, CABAC : Yes 
Format settings, ReFrames : 4 frames 
Codec ID : V_MPEG4/ISO/AVC 
Duration : 1 h 53 min 
Bit rate : 900 kb/s 
Width : 1 280 pixels 
Height : 534 pixels 
Display aspect ratio : 2.40:1 
Original display aspect rat : 2.40:1 
Frame rate mode : Constant 
Frame rate : 23.976 FPS 
Color space : YUV 
Chroma subsampling : 4:2:0 
Bit depth : 8 bits 
Scan type : Progressive 
Bits/(Pixel*Frame) : 0.055 
Stream size : 733 MiB (71%) 
Writing library : x264 core 152 
Default : Yes 
Forced : No 

Audio #1 
ID : 2 
Format : AC-3 
Format/Info : Audio Coding 3 
Codec ID : A_AC3 
Duration : 1 h 53 min 
Bit rate mode : Constant 
Bit rate : 256 kb/s 
Channel(s) : 6 channels 
Channel positions : Front: L C R, Side: L R, LFE 
Sampling rate : 48.0 kHz 
Frame rate : 31.250 FPS (1536 SPF) 
Bit depth : 16 bits 
Compression mode : Lossy 
Delay relative to video : -43 ms 
Stream size : 209 MiB (20%) 
Language : Hindi 
Service kind : Complete Main 
Default : Yes 
Forced : No 

Audio #2 
ID : 3 
Format : AAC 
Format/Info : Advanced Audio Codec 
Format profile : LC 
Codec ID : A_AAC-2 
Duration : 1 h 53 min 
Bit rate : 114 kb/s 
Channel(s) : 2 channels 
Channel positions : Front: L R 
Sampling rate : 48.0 kHz 
Frame rate : 46.875 FPS (1024 SPF) 
Compression mode : Lossy 
Delay relative to video : -43 ms 
Stream size : 92.6 MiB (9%) 
Language : English 
Default : No 
Forced : No 

Text 
ID : 4 
Format : UTF-8 
Codec ID : S_TEXT/UTF8 
Codec ID/Info : UTF-8 Plain Text 
Duration : 1 h 44 min 
Bit rate : 72 b/s 
Count of elements : 1844 
Stream size : 55.6 KiB (0%) 
Default : Yes 
Forced : No